Cari Torrent: [Semua torrent]


Clock

Banner Advertising

Torrent’s details
Name Dream High.HDTV.X264.720p
Tag 2011
Torrent Dream High.HDTV.X264.720p
Share this torrent Tweet this Share on Facebook Share on MySpace Digg this
Info Hash f0fdaa5e70f68ca96d99a0588e3e155dcc3c691c
Image
Who thanks
Description
http://wiki.d-addicts.com/Dream_High
http://mydramalist.info/dramas/view/4613

Details
Title: 드림하이 / Dream High
Genre: School, comedy, romance
Episodes: 16
Broadcast network: KBS2
Broadcast period: 2011-Jan-03 to 2011-Feb-28
Language: Korean
Subtitle: English (by Dark Smurf CTS)

Synopsis
Six students at Kirin Art High School work to achieve their dreams of becoming stars.Students at an arts and entertainment school mature as they face incidents and struggles. This movie shows singing, dancing, and acting and also shows the true side of the entertainment industry.


Cast
Kim Soo Hyun as Song Sam Dong
Taecyeon as Jin Gook / Hyun Shi Hyuk
Suzy as Go Hye Mi
Ham Eun Jung as Yoon Baek Hee
Wooyoung as Jason
IU as Kim Pil Sook
Uhm Ki Joon as Kang Oh Hyuk
Lee Yoon Ji as Shi Kyung Jin
Jun Ah Min as Jo In Sung (Jin Gook's friend)
Jung Min Joo (정민주) as Jung Ah Jung (Kirin student)
Han Ji Hoo as Park Do Joon (Kirin student, sunbae)
Yoon Young Ah as Lee Ri Ah (Kirin student)
Park Jin Sang (박진상) as Jun Tae San (Kirin student, sunbae)
Kim Bo Reum as Ha So Hyun (Kirin student, sunbae)
Park Jin Young (박진영) as Yang Jin Man (Kirin's English teacher)
Lee Byung Joon as Shi Bum Soo (Kirin's principal)
Lee Yoon Mi as Maeng Seung Hee (Kirin's teacher)
Baek Won Kil (백원길) as Gong Min Chul
Ahn Kil Kang as Ma Doo Shik
Ahn Sun Young as Kang Oh Sun (Oh Hyuk's older sister)
Ahn Seo Hyun as Go Hye Sung (Hye Mi's little sister)
Park Eun Bin as 16 year old Hye Sung (cameo, ep 16)
Lee Hye Sook as Song Nam Boon (Sam Dong's mother)
Choi Il Hwa as Hyun Moo Jin (Hyun Shi Hyuk / Jin Gook's father)
Park Hyuk Kwon (박혁권) as Go Byung Jik (Hye Mi's father)
Bae Noo Ri (배누리) as Kirin student

Production Credits
Production Companies: KeyEast, JYPE, and CJ Media
Producer: Bae Yong Joon, Park Jin Young (박진영)
Director: Lee Eung Bok
Screenwriter: Park Hye Ryun

General
Complete name                    : Dream High.E01.110103.HDTV.X264.720p-Baros.avi
Format                           : AVI
Format/Info                      : Audio Video Interleave
File size                        : 1.52 GiB
Duration                         : 1h 5mn
Overall bit rate                 : 3 315 Kbps
Writing application              : PotEncoder
Writing library                  : VirtualDub build 24463/release

Video
ID                               : 0
Format                           : AVC
Format/Info                      : Advanced Video Codec
Format profile                   : High@L4.1
Format settings, CABAC           : Yes
Format settings, ReFrames        : 4 frames
Codec ID                         : H264
Duration                         : 10s 0ms
Bit rate                         : 3 100 Kbps
Width                            : 1 280 pixels
Height                           : 720 pixels
Display aspect ratio             : 16:9
Frame rate mode                  : Variable
Frame rate                       : 30.000 fps
Color space                      : YUV
Chroma subsampling               : 4:2:0
Bit depth                        : 8 bits
Scan type                        : Progressive
Bits/(Pixel*Frame)               : 0.112
Stream size                      : 1.43 GiB (94%)
Writing library                  : x264 core 104

Audio
ID                               : 1
Format                           : AC-3
Format/Info                      : Audio Coding 3
Mode extension                   : CM (complete main)
Codec ID                         : 2000
Duration                         : 1h 5mn
Bit rate mode                    : Constant
Bit rate                         : 192 Kbps
Channel(s)                       : 2 channels
Channel positions                : Front: L R
Sampling rate                    : 48.0 KHz
Bit depth                        : 16 bits
Compression mode                 : Lossy
Stream size                      : 90.1 MiB (6%)
Alignment                        : Split accross interleaves
Interleave, duration             : 33 ms (1.00 video frame)
Interleave, preload duration     : 500 ms

Screenshots
Category TV seri
Rating
  • Currently 5.00/5
Rating: 5.0 out of 5.0 (Votes: 1) For your upload!

Size 25.04 GB
Show/Hide Files
32 files
AddDate 14/05/2012
Uploader Send as anonymous
Speed 0 KB/sec
Down 17 times
peers seeds: 205, leechers: 31 = 236 peers
Last 10 Snatchers
Update
http://www.asiatorrents.com/announce.php?pid=36fefbadf7cc4d38c01a72979e7301ae
Last Update 25/05/2017 13:49:56 (05/07/2012 05:33:13)


indra46
Members
28/06/2014 16.40.04
(151 weeks ago)

 ---
 0.00 KB
 0.00 KB
Wah cari yg 450p sad.gif ada gag yah ?cry.gif
ZeZ
V.I.P.
22/07/2013 16.20.59
(200 weeks ago)

 13.04
 155.38 GB
 11.92 GB
Wah thanks banget nih yg ane cari grin.gif



Latest Uploaded Torrent

Categories
Film :
 » HD1205  
 » 3D8  
 » m-HD523  
 » DVD Rip241  
 » VCDrip15  
 » TSrip1  
 » PPV Rip1  
 » Lainnya226  
TV :
 » TV seri278  
 » Silat7  
Animasi :
 » Anime (Japan)44  
 » Animasi Lainnya17  
Game :
 » Game PC59  
 » Mac2  
 » psp3  
 » ps20  
 » ps388  
 » xbox3  
 » wii0  
 » NDS2  
 » Game Lainnya0  
Buku :
 » Komik4  
 » Buku Audio1  
 » Ilmu Komputer (TI)111  
 » Lainnya11  
Musik97 
Lainnya3 
Apps :
 » handphone12  
 » Windows68  
 » Linux5  
 » Mac2  

Facebook Updates