Cari Torrent: [Semua torrent]


Clock

Banner Advertising

Torrent’s details
Name Queen In-Hyun's Man 480p-KiSHD Complete
Tag complete tv series, korean movies
Torrent Queen In-Hyun's Man 480p-KiSHD Complete
Share this torrent Tweet this Share on Facebook Share on MySpace Digg this
Info Hash 51128e86412cefe6c075e56a17aaf916bfa96147
Image
Who thanks
Description Title: 인현왕후의 남자 / Inhyeon Wanghu-ui Namja
Also known as: Queen Inhyun's Man / Queen and I
Genre: Romance
Episodes: 16
Broadcast network: tvN
Broadcast period: 2012-Apr-18 to TBA
Air time: Wednesday & Thursday 23:00

Synopsis

Kim Boong Do is a scholar who had supported the reinstatement of Queen In Hyun when Jang heebin's schemes resulted in her being deposed and replaced as King Sukjong's queen consort. He travels 300 years into the future of modern Seoul and meets Choi Hee Jin, a no-name actress who is expecting a career renaissance through her role as Queen In Hyun in a TV drama.

Cast

Ji Hyun Woo as Kim Boong Do
Yoo In Na as Choi Hee Jin
Kim Jin Woo as Han Dong Min
Ga Deuk Hi (가득히) as Jo Soo Kyung
Park Young Rin (박영린) as Yoon Na Jung
Jo Dal Hwan as Chun Soo
Uhm Hyo Sup as Min Ahm
Lee Kwan Hoon (이관훈) as Ja Soo
Jin Ye Sol as Yoon Wol
Ji Nam Hyuk (지남혁) as Han Dong
Seo Woo Jin (서우진) as King Sukjong
Kim Hae In as Queen In Hyun
Choi Woo Ri (최우리) as Jang heebin
Kim Won Hae (김원해) as Officer Hong
Kim Kyul (김결) as Young Myung


Quote:
General
Complete name                            : Queen.In.Hyuns.Man.E01.480P.HDTV.X264-KiSHD.mkv
Format                                   : Matroska
Format version                           : Version 2
File size                                : 349 MiB
Duration                                 : 45mn 14s
Overall bit rate                         : 1 079 Kbps
Encoded date                             : UTC 2012-04-26 09:32:32
Writing application                      : mkvmerge v5.2.1 ('A Far Off Place'wink.gif built on Jan  2 2012 23:21:10
Writing library                          : libebml v1.2.3 + libmatroska v1.3.0

Video
ID                                       : 1
Format                                   : AVC
Format/Info                              : Advanced Video Codec
Format profile                           : High@L4.1
Format settings, CABAC                   : Yes
Format settings, ReFrames                : 5 frames
Muxing mode                              : Header stripping
Codec ID                                 : V_MPEG4/ISO/AVC
Duration                                 : 45mn 14s
Bit rate                                 : 950 Kbps
Width                                    : 848 pixels
Height                                   : 480 pixels
Display aspect ratio                     : 16:9
Frame rate                               : 29.970 fps
Color space                              : YUV
Chroma subsampling                       : 4:2:0
Bit depth                                : 8 bits
Scan type                                : Progressive
Bits/(Pixel*Frame)                       : 0.078
Stream size                              : 301 MiB (86%)
Writing library                          : x264 core 120 r2164 da19765
Encoding settings                        : cabac=1 / ref=5 / deblock=1:-1:-1 / analyse=0x3:0x133 / me=umh / subme=7 / psy=1 / psy_rd=1.00:0.00 / mixed_ref=1 / me_range=24 / chroma_me=1 / trellis=2 / 8x8dct=1 / cqm=0 / deadzone=21,11 / fast_pskip=0 / chroma_qp_offset=-2 / threads=6 / sliced_threads=0 / nr=0 / decimate=0 / interlaced=0 / bluray_compat=0 / constrained_intra=0 / bframes=6 / b_pyramid=2 / b_adapt=2 / b_bias=0 / direct=3 / weightb=1 / open_gop=0 / weightp=2 / keyint=250 / keyint_min=25 / scenecut=40 / intra_refresh=0 / rc_lookahead=50 / rc=2pass / mbtree=1 / bitrate=950 / ratetol=1.0 / qcomp=0.60 / qpmin=0 / qpmax=69 / qpstep=4 / cplxblur=20.0 / qblur=0.5 / vbv_maxrate=50000 / vbv_bufsize=50000 / nal_hrd=none / ip_ratio=1.40 / aq=1:1.00
Language                                 : English
Default                                  : Yes
Forced                                   : No

Audio
ID                                       : 2
Format                                   : AC-3
Format/Info                              : Audio Coding 3
Mode extension                           : CM (complete main)
Format settings, Endianness              : Big
Muxing mode                              : Header stripping
Codec ID                                 : A_AC3
Duration                                 : 45mn 14s
Bit rate mode                            : Constant
Bit rate                                 : 128 Kbps
Channel(s)                               : 6 channels
Channel positions                        : Front: L C R, Side: L R, LFE
Sampling rate                            : 48.0 KHz
Bit depth                                : 16 bits
Compression mode                         : Lossy
Delay relative to video                  : 32ms
Stream size                              : 41.4 MiB (12%)
Language                                 : Korean
Default                                  : Yes
Forced                                   : No



subtitle english bisa didownload di http://www.4shared.com/rar/VH9aGe_X/Queen_In_Hyuns_Man_480p_Comple.html
Screenshots
Category TV seri
Rating
  • Currently 0.00/5
Rating: 0.0 out of 5.0 (Votes: 0) For your upload!

Size 5.46 GB
Show/Hide Files
16 files
AddDate 11/06/2012
Uploader Send as anonymous
Speed 0 KB/sec
Down 20 times
peers seeds: 102, leechers: 22 = 124 peers
Last 10 Snatchers
Update
http://www.asiatorrents.me/announce.php?pid=e9384e31891867def4e360dac3f1ddaf
Last Update 30/08/2014 09:12:19 (30/08/2014 09:12:19)


alien
Members
24/01/2014 06.29.08
(34 weeks ago)

 ---
 4.66 MB
 0.00 KB
coba ke darksmurf kalau tidak salah ada disana.
Rainbowboy
V.I.P.
07/03/2013 07.56.44
(80 weeks ago)

 0.52
 186.69 GB
 360.61 GB
Ad yg punya subs?



Latest Uploaded Torrent

Categories
Film :
 » HD1175  
 » 3D8  
 » m-HD375  
 » DVD Rip218  
 » VCDrip13  
 » TSrip1  
 » PPV Rip1  
 » Lainnya143  
TV :
 » TV seri253  
 » Silat7  
Animasi :
 » Anime (Japan)40  
 » Animasi Lainnya16  
Game :
 » Game PC56  
 » Mac2  
 » psp3  
 » ps20  
 » ps393  
 » xbox3  
 » wii0  
 » NDS2  
 » Game Lainnya0  
Buku :
 » Komik4  
 » Buku Audio1  
 » Ilmu Komputer (TI)110  
 » Lainnya11  
Musik89 
Lainnya3 
Apps :
 » handphone11  
 » Windows56  
 » Linux2  
 » Mac2  

Facebook Updates